<?xml version="1.0" standalone="no"?>
<!DOCTYPE svg PUBLIC "-//W3C//DTD SVG 1.1//EN" "http://www.w3.org/Graphics/SVG/1.1/DTD/svg11.dtd" >
<svg xmlns="http://www.w3.org/2000/svg">
<metadata>
This is a custom SVG webfont generated by Font Squirrel.
Designer    : Matteo Bicocchi
Foundry     : mb.ideas
</metadata>
<defs>
<font id="webfontywr4YLri" horiz-adv-x="2048" >
<font-face units-per-em="2048" ascent="1536" descent="-512" />
<missing-glyph horiz-adv-x="1024" />
<glyph unicode=" "  horiz-adv-x="1024" />
<glyph unicode="&#x09;" horiz-adv-x="1024" />
<glyph unicode="&#xa0;" horiz-adv-x="1024" />
<glyph unicode="F" d="M1618 576l-640 -640v1280zM928 576l-640 -640v1280zM1772 -64h-128v1280h128v-1280z" />
<glyph unicode="N" d="M1602 -64l-640 640l640 640v-1280zM912 -64l-640 640l640 640v-1280z" />
<glyph unicode="O" d="M1082 576l-640 -640v1280zM1772 576l-640 -640v1280z" />
<glyph unicode="P" d="M1408 640l-640 -640v1280z" />
<glyph unicode="R" d="M1772 -64l-640 640l640 640v-1280zM1082 -64l-640 640l640 640v-1280zM416 -64h-128v1280h128v-1280z" />
<glyph unicode="S" d="M1600 38h-1152v1152h1152v-1152z" />
<glyph unicode="V" horiz-adv-x="1100" d="M900 -93l-470 434h-298v586h298l470 435v-1455z" />
<glyph unicode="l" d="M1898 992q0 -51 -50 -51q-24 0 -202 104l-213 128q-26 15 -26 42q0 52 50 52q24 0 202 -104l213 -128q26 -15 26 -43zM1898 630q0 -50 -50 -50h-450q-50 0 -50 50t50 50h450q50 0 50 -50zM1898 260q0 -27 -26 -42l-213 -128q-178 -105 -202 -105q-50 0 -50 52q0 27 26 42 l213 128q178 105 202 105q50 0 50 -52z" />
<glyph unicode="m" d="M641 1215q0 -27 -26 -42l-213 -128q-178 -104 -202 -104q-50 0 -50 51q0 28 26 43l213 128q178 104 202 104q50 0 50 -52zM700 630q0 -50 -50 -50h-450q-50 0 -50 50t50 50h450q50 0 50 -50zM641 37q0 -52 -50 -52q-24 0 -202 105l-213 128q-26 15 -26 42q0 52 50 52 q24 0 202 -105l213 -128q26 -15 26 -42z" />
<glyph unicode="p" d="M1383 -64h-256v1280h256v-1280zM871 -64h-256v1280h256v-1280z" />
<glyph unicode="&#x2000;" horiz-adv-x="681" />
<glyph unicode="&#x2001;" horiz-adv-x="1362" />
<glyph unicode="&#x2002;" horiz-adv-x="681" />
<glyph unicode="&#x2003;" horiz-adv-x="1362" />
<glyph unicode="&#x2004;" horiz-adv-x="454" />
<glyph unicode="&#x2005;" horiz-adv-x="340" />
<glyph unicode="&#x2006;" horiz-adv-x="227" />
<glyph unicode="&#x2007;" horiz-adv-x="227" />
<glyph unicode="&#x2008;" horiz-adv-x="170" />
<glyph unicode="&#x2009;" horiz-adv-x="272" />
<glyph unicode="&#x200a;" horiz-adv-x="75" />
<glyph unicode="&#x2013;" horiz-adv-x="1024" d="M204 512v204h616v-204h-616z" />
<glyph unicode="&#x2014;" d="M204 512v204h1640v-204h-1640z" />
<glyph unicode="&#x202f;" horiz-adv-x="272" />
<glyph unicode="&#x205f;" horiz-adv-x="340" />
</font>
</defs>
</svg>
